Открытый порно трекер

Tijuana Blue

 Tijuana Blue
Tijuana Blue
Голубая ТИХУАНА


Год производства: 1973 г.
Страна: USA
Жанр: Feature, all sex, classic, oral, lesbi, toys, group
Продолжительность: 00:58:06
Язык: Английский

Режиссер: Harry Hopper (as Howard Ziehm)
Студия: Alpha Blue Archives

В ролях:
Actresses-
Andy Bellamy [IR]
Carmen Olivera
Chlorine Stillwater
Dorothy Clemente
Eve Orlon
Jill Sweete [Facial]
Lidia Hernandez
Maria Gomez
Nina Martinez
Sue Pagan

Actors- Lee Beck, Martin Victor

NonSex Performers- Ernest Frazer
___________

Scene Breakdowns:

Scene 1. Jill Sweete, Lee Beck
Scene 2. blonde, Carmen Olivera, 2 guys, Martin Victor
Scene 3. Andy Bellamy, black girl
Scene 4. brun, Chlorine Stillwater, Eve Orlon, Lee Beck, Martin Victor
Scene 5. blonde
____________

Описание: A drug runner gets sent to Tijuana to meet with a person named Oddball. He's told not to get involved with prostitutes, to just do the job and nothing else. He brings one friend with him, and they end up having sex with every female they meet.
This movie wasn't very good. The story was there, and it actually had a decent ending, unlike other porn flicks of it's time. The cast was not very attractive. Even when there were attractive people, it was hard to see them, due to the awful filming quality. Being attractive isn't really all that big of a deal though, as long as the movie is interesting and well made. This was not all that well made, it kind of sucked. This can be obtained from Alpha Blue Archives on a disc titled Harry Hopper. It's actually a good buy, as it has three of Howard Ziehm's (Harry Hopper) earliest films

Доп. информация:
http://www.iafd.com/title.rme/title=Tijuana+Blue/year=1973/tijuana-blue.htm


Качество видео: VHSRip
Формат видео: AVI
Видео кодек: DivX
Аудио кодек: MP3
Видео: DivX 6 640x480 29.97fps [Stream 00]
Аудио: MPEG Audio Layer 3 44100Hz stereo 192kbps [01) Audio Stream]
_____________

Тех. данные:
***********
Video
ID : 0
Format : MPEG-4 Visual
Format settings, BVOP : Yes
Format settings, QPel : No
Format settings, GMC : No warppoints
Format settings, Matrix : Default (H.263)
Codec ID : DIVX
Codec ID/Info : Project Mayo
Codec ID/Hint : DivX 4
Duration : 58mn 6s
Bit rate : 1 024 Kbps
Width : 640 pixels
Height : 480 pixels
Display aspect ratio : 4:3
Frame rate : 29.970 fps
Color space : YUV
Chroma subsampling : 4:2:0
Bit depth : 8 bits
Scan type : Progressive
Compression mode : Lossy
Bits/(Pixel*Frame) : 0.111
Stream size : 425 MiB (83%)

Audio
ID : 1
Format : MPEG Audio
Format version : Version 1
Format profile : Layer 3
Codec ID : 55
Codec ID/Hint : MP3
Duration : 58mn 5s
Bit rate mode : Constant
Bit rate : 192 Kbps
Channel(s) : 2 channels
Sampling rate : 44.1 KHz
Compression mode : Lossy
Delay relative to video : 26ms
Stream size : 79.8 MiB (16%)
Alignment : Split accross interleaves
Interleave, duration : 33 ms (1.00 video frame)
Title : Audio Stream

************************************

ПРИЯТНОГО ПРОСМОТРА ! НЕ ЗАБЫВАЙТЕ О "СПАСИБО" !








Скачать Tijuana Blue сейчас

Скачивай на максимальной скорости новым торрент клиентом!


Скачать торрент: Tijuana Blue (20,31 Kb)
Сиды:  156 
Пиры:  42 
Общий размер: 510,08 Mb
SHA Hash: 272f49564b7ba091e64b629ebcd5935c20830f07

Список файлов (1)