Открытый порно трекер

Dirty Susan

 Dirty Susan
Dirty Susan
Развратная Сьюзи


Год производства: 1977 г.
Страна: USA
Жанр: Feature, all sex, classic, oral, lesbi, group
Продолжительность: 00:53:42
Язык: Английский

Режиссер: Warren Evans
Студия: C.P.L.C.

В ролях:
Actresses-
Erica Havens
Georgette Saunders
Kasey Rodgers [Facial]
Marcia Minor

Actors- Ashley Moore, Roger Caine, Russ Carlson
___________

Scene Breakdowns:

Scene 1. Georgette Saunders, Roger Caine
Scene 2. Kasey Rodgers, Russ Carlson
Scene 3. Kasey Rodgers, Ashley Moore
Scene 4. Georgette Saunders, Russ Carlson
Scene 5. Erica Havens, Marcia Minor
Scene 6. Marcia Minor, Roger Caine
Scene 7. Erica Havens, Ashley Moore, Russ Carlson
_____________

Описание: This one has McCord on the trail of a mysterious girl named Susan that seems to come and go through people’s lives when they are having sexual problems. It just so happens that this “Susan” is the same girl who ended up in McCord’s bed that very morning. As McCord gets to interviewing witnesses about this strange girl – we find that she’s a sort of ethereal sex-therapist that finds people in need of sexual help, and is more than “helpful”. We hear stories of a couple who Susan advises to have the wife bone her brother to fix the problem! And another girl who needs help with her first lesbian experience. McCord realizes that Susan doesn’t want to be found, and gives up the search, suggesting that all of those “touched” by Susan’s helping… uh… hand – get together for an orgy. Sounds like a good idea to me….

Это фильм о таинственной девушке, Сьюзи. Если у вас сексуальные проблемы, то она придёт к Вам и окажет посильную помощь. Будь то обычный секс, первый лесбийской опыт, или опыт участия в оргии.

Доп. информация:
http://www.iafd.com/title.rme/title=Dirty+Susan/year=1977/dirty-susan.htm


Качество видео: VHSRip
Формат видео: AVI
Видео кодек: XviD
Аудио кодек: MP3
Видео: MPEG4 Video 576x432 29.97fps [Stream 00]
Аудио: MPEG Audio Layer 3 44100Hz stereo 96kbps [Stream 01]
______________

Тех. данные:
***********
Video
ID : 0
Format : MPEG-4 Visual
Format profile : Advanced Simple@L5
Format settings, BVOP : 1
Format settings, QPel : No
Format settings, GMC : No warppoints
Format settings, Matrix : Custom
Codec ID : XVID
Codec ID/Hint : XviD
Duration : 53mn 42s
Bit rate : 1 716 Kbps
Width : 576 pixels
Height : 432 pixels
Display aspect ratio : 4:3
Frame rate : 29.970 fps
Color space : YUV
Chroma subsampling : 4:2:0
Bit depth : 8 bits
Scan type : Progressive
Compression mode : Lossy
Bits/(Pixel*Frame) : 0.230
Stream size : 659 MiB (94%)
Writing library : XviD 1.0.2 (UTC 2004-08-29)

Audio
ID : 1
Format : MPEG Audio
Format version : Version 1
Format profile : Layer 3
Codec ID : 55
Codec ID/Hint : MP3
Duration : 53mn 41s
Bit rate mode : Constant
Bit rate : 96.0 Kbps
Channel(s) : 2 channels
Sampling rate : 44.1 KHz
Compression mode : Lossy
Stream size : 36.9 MiB (5%)
Alignment : Split accross interleaves
Interleave, duration : 26 ms (0.78 video frame)

************************************

ПРИЯТНОГО ПРОСМОТРА ! НЕ ЗАБЫВАЙТЕ О "СПАСИБО" !










Скачать Dirty Susan сейчас

Скачивай на максимальной скорости новым торрент клиентом!


Скачать торрент: Dirty Susan (14,08 Kb)
Сиды:  28 
Пиры:  12 
Общий размер: 701,35 Mb
SHA Hash: 51d82f41707002068f9d424d915a8ba86ebf23f5

Список файлов (1)