Открытый порно трекер

Triple Trouble

 Triple Trouble
Triple Trouble
Тройная Проблема


Год производства: 2011 г.
Страна: США
Жанр: Threesomes & More, Hardcore, All Sex
Язык: Английский

Режиссёр: Студия: Primal Attraction, Abigail Productions

Продолжительность: 01:45:58
Release Date: Aug 1, 2011

В ролях: Jayden Jaymes, Faye Reagan, Sindee Jennings, Kiera King, Jessica Jaymes, Lyla Storm etc

Описание: Direct Entertainment is launching a new line called Primal Attraction. It's inaugural title is 3-way themed and is all new footage shot expressly for Direct. Since the 3rd time is a charm, maybe threeways will also be charmed.

Horny nymphos pair up to take on one lucky cock, or some dirty whores get double dicked. These sluts know how to have a good time and they'll do everything you could ever dream of.

Доп. информация: http://www.cduniverse.com/productinfo.asp?pid=8572603
http://www.excaliburfilms.com/AdultDVD/3001439D1_Triple_Trouble_dvd.htm


Меню: Есть

Качество видео: DVD5
Видео кодек: MPEG2 Video
Аудио кодек: AC3
Видео: MPEG2 Video 720x480 (16:9) 29.97fps 7000kbps
Аудио: Dolby AC3 48000Hz 6ch 192kbps
****************
DVDinfo
******
Title:
Size: 3.53 Gb ( 3 701 192 KBytes ) - DVD-5
Enabled regions: 1, 2, 3, 4, 5, 6, 7, 8

VTS_01 :
Play Length:
Video: NTSC 16:9 (720x480) VBR, Auto Letterboxed

VTS_02 :
Play Length: 01:45:58
Video: NTSC 16:9 (720x480) VBR, Auto Letterboxed
Audio:
Not specified (Dolby AC3, 2 ch)

VTS_03 :
Play Length: 00:02:05
Video: NTSC 16:9 (720x480) VBR, Auto Letterboxed
Audio:
Not specified (Dolby AC3, 2 ch)

VTS_04 :
Play Length: 00:06:18
Video: NTSC 16:9 (720x480) VBR, Auto Letterboxed

VTS_05 :
Play Length: 00:04:30
Video: NTSC 16:9 (720x480) VBR, Auto Letterboxed

VTS_06 :
Play Length: 00:05:18
Video: NTSC 16:9 (720x480) VBR, Auto Letterboxed

VTS_07 :
Play Length: 00:06:54
Video: NTSC 16:9 (720x480) VBR, Auto Letterboxed

VTS_08 :
Play Length: 00:04:06
Video: NTSC 16:9 (720x480) VBR, Auto Letterboxed

VTS_09 :
Play Length: 00:00:45
Video: NTSC 16:9 (720x480) VBR, Auto Letterboxed
Audio:
Not specified (Dolby AC3, 2 ch)

VTS_10 :
Play Length: 00:04:25
Video: NTSC 16:9 (720x480) VBR, Auto Letterboxed
Audio:
Not specified (Dolby AC3, 2 ch)
******************
MediaInfo
********
Format : MPEG-PS
File size : 1 024 MiB
Duration : 33mn 0s
Overall bit rate : 4 338 Kbps

Video
ID : 224 (0xE0)
Format : MPEG Video
Format version : Version 2
Format profile : Main@Main
Format settings, BVOP : Yes
Format settings, Matrix : Default
Format settings, GOP : M=3, N=12
Duration : 33mn 0s
Bit rate mode : Variable
Bit rate : 4 060 Kbps
Nominal bit rate : 7 000 Kbps
Width : 720 pixels
Height : 480 pixels
Display aspect ratio : 16:9
Frame rate : 23.976 fps
Standard : NTSC
Color space : YUV
Chroma subsampling : 4:2:0
Bit depth : 8 bits
Scan type : Progressive
Scan order : 2:3 Pulldown
Bits/(Pixel*Frame) : 0.490
Stream size : 958 MiB (94%)

Audio
ID : 128 (0x80)
Format : AC-3
Format/Info : Audio Coding 3
Mode extension : CM (complete main)
Duration : 33mn 0s
Bit rate mode : Constant
Bit rate : 192 Kbps
Channel(s) : 2 channels
Channel positions : Front: L R
Sampling rate : 48.0 KHz
Bit depth : 16 bits
Video delay : -314ms
Stream size : 45.3 MiB (4%)

Menu
************************************

ПРИЯТНОГО ПРОСМОТРА ! НЕ ЗАБЫВАЙТЕ О "СПАСИБО" !


















Скачать Triple Trouble сейчас

Скачивай на максимальной скорости новым торрент клиентом!


Скачать торрент: Triple Trouble (19,81 Kb)
Сиды:  95 
Пиры:  23 
Общий размер: 3,53 Gb
SHA Hash: 4c571b2530ab1a62de4b0af96aea3340f4f32aa5

Список файлов (36)