Открытый порно трекер

Kinky Cougars

 Kinky Cougars
Kinky Cougars
Развратные Мамашки


Год производства: 2008 г.
Страна: США
Жанр: Vignettes, All Sex, MILF, Straight, Gonzo, Anal, Facial, Hardcore
Язык: Английский

Режиссер: Skye Blue
Студия: Penthouse

Продолжительность: 01:27:55
Release Date: Feb 28, 2009

В ролях:
Actresses-
Claudia Valentine [Facial]
India Summer [Facial]
Kendra Secrets
Morgan Ray
Syren De Mer [Anal Facial]

Actors- Aaron Wilcox, Chris Johnson, Frankie Young, Johnny Nitro
___________

Scene Breakdowns:

Scene 1. Syren De Mer, Aaron Wilcox
Scene 2. Morgan Ray, Chris Johnson
Scene 3. Kendra Secrets, Frankie Young
Scene 4. India Summer, guy
Scene 5. Claudia Valentine, Johnny Nitro
_____________

Описание: Experienced & sexy XXX hardcore pussies in heat!

These cougars are ready to pounce! Foot fetish feline in action! Busty babes on the prowl!

Penthouse brings you the sexiest and most experienced XXX hardcore p*ssies in heat! Get ready... These cougars are ready to pounce! Syren DeMer is ready to give dictation! Watch as this kinky cougar gives some ass to her assistant in this XXX anal scene!

You'll get a raise for sure! Morgan Rey serves it up raw! There's nothing better than sushi and coochie! Kendra Secrets is one horny Garden Ho! And Oh, can she make your c*ck grow! India Summer gives her handyman one hot 'to-do' list! She knows he has the tool for the job! Sexy, sassy, steamy and nasty, it's Claudia Valentine, an executive's wife who has an appetite for c*ck!

Доп. информация:
http://www.cduniverse.com/productinfo.asp?pid=7867957&style=ice
http://www.iafd.com/title.rme/title=Kinky+Cougars/year=2009/kinky-cougars.htm


Тип HD видео: 1080 p
Формат видео: MKV
Видео кодек: H.264/AVC
Аудио кодек: AAC
Video: MPEG4 Video (H264) 1920x1080 25.00fps 4970Kbps[Video]
Audio: Dolby AC3 48000Hz stereo [Audio]
***************
MediaInfo
********
Format : Matroska
File size : 3.28 GiB
Duration : 1h 27mn
Overall bit rate : 5 332 Kbps
Encoded date : UTC 2011-08-13 21:04:56
Writing application : mkvmerge v4.3.0 ('Escape from the Island') gebaut am Sep 5 2010 10:30:51
Writing library : libebml v1.0.0 + libmatroska v1.0.0

Video
ID : 1
Format : AVC
Format/Info : Advanced Video Codec
Format profile : High@L4.1
Format settings, CABAC : Yes
Format settings, ReFrames : 4 frames
Muxing mode : Container profile=Unknown@4.1
Codec ID : V_MPEG4/ISO/AVC
Duration : 1h 27mn
Bit rate : 4 970 Kbps
Width : 1 920 pixels
Height : 1 080 pixels
Display aspect ratio : 16:9
Frame rate : 25.000 fps
Color space : YUV
Chroma subsampling : 4:2:0
Bit depth : 8 bits
Scan type : Progressive
Bits/(Pixel*Frame) : 0.096
Stream size : 3.05 GiB (93%)
Writing library : x264 core 116 r2044 392e762
Encoding settings : cabac=1 / ref=4 / deblock=1:-1:-1 / analyse=0x3:0x113 / me=umh / subme=6 / psy=1 / psy_rd=1.00:0.00 / mixed_ref=1 / me_range=16 / chroma_me=1 / trellis=1 / 8x8dct=1 / cqm=0 / deadzone=21,11 / fast_pskip=0 / chroma_qp_offset=-2 / threads=6 / sliced_threads=0 / nr=0 / decimate=1 / interlaced=0 / bluray_compat=0 / constrained_intra=0 / bframes=3 / b_pyramid=2 / b_adapt=2 / b_bias=0 / direct=3 / weightb=1 / open_gop=0 / weightp=2 / keyint=250 / keyint_min=25 / scenecut=40 / intra_refresh=0 / rc_lookahead=40 / rc=crf / mbtree=1 / crf=20.0 / qcomp=0.60 / qpmin=10 / qpmax=51 / qpstep=4 / vbv_maxrate=50000 / vbv_bufsize=50000 / crf_max=0.0 / nal_hrd=none / ip_ratio=1.40 / aq=1:1.00

Audio
ID : 2
Format : AC-3
Format/Info : Audio Coding 3
Mode extension : CM (complete main)
Codec ID : A_AC3
Duration : 1h 27mn
Bit rate mode : Constant
Bit rate : 256 Kbps
Channel(s) : 2 channels
Channel positions : Front: L R
Sampling rate : 48.0 KHz
Bit depth : 16 bits
Stream size : 161 MiB (5%)
************************************

ПРИЯТНОГО ПРОСМОТРА ! НЕ ЗАБЫВАЙТЕ О "СПАСИБО" !














Скачать Kinky Cougars сейчас

Скачивай на максимальной скорости новым торрент клиентом!


Скачать торрент: Kinky Cougars (16,75 Kb)
Сиды:  107 
Пиры:  20 
Общий размер: 3,28 Gb
SHA Hash: fb8b2c47972483e25a4c21f92ada6383dc1d01e5

Список файлов (1)