Открытый порно трекер

Storie Vere di Un'Italia Violenta

 Storie Vere di Un'Italia Violenta

Скачайте бесплатно порно фильм Storie Vere di Un'Italia Violenta через торрент. Порно видео Storie Vere di Un'Italia Violenta доступен без регистрации и без смс на высокой скорости. Также выберит другие порно фильмы скачайте через торрент и посмотрите бесплатно.

Год производства: 2010 г.
Страна: Italia
Жанр: rape,anal,oral
Продолжительность: 1h 46mn
Язык: Итальянский

Режиссер: Eros Grimaldi
Студия: Distretto Italia

В ролях: Veronica Belli, Ambra, Katia, Veruska, Nico, Carlo, Adamo
Доп. информация: http://www.69stream.com/IT/scheda/7407/storie_vere_...ia_violenta.html)
Format : AVI
Format/Info : Audio Video Interleave
File size : 1.21 GiB
Duration : 1h 46mn

Video
ID : 0
Format : MPEG-4 Visual
Format settings, BVOP : 1
Format settings, QPel : No
Format settings, GMC : No warppoints
Format settings, Matrix : Default (H.263)
Muxing mode : Packed bitstream
Codec ID : DX50
Codec ID/Hint : DivX 5
Duration : 1h 46mn
Bit rate : 1 501 Kbps
Width : 720 pixels
Height : 576 pixels
Display aspect ratio : 4:3
Frame rate : 25.000 fps
Standard : PAL
Color space : YUV
Chroma subsampling : 4:2:0
Bit depth : 8 bits
Scan type : Progressive
Compression mode : Lossy
Bits/(Pixel*Frame) : 0.145
Stream size : 1.11 GiB (92%)
Writing library : DivX 6.6.1.4

Audio
ID : 1
Format : AC-3
Format/Info : Audio Coding 3
Mode extension : CM (complete main)
Codec ID : 2000
Duration : 1h 46mn
Bit rate mode : Constant
Bit rate : 128 Kbps
Channel(s) : 2 channels
Channel positions : Front: L R
Sampling rate : 48.0 KHz
Bit depth : 16 bits
Compression mode : Lossy
Stream size : 97.2 MiB (8%)
Alignment : Split accross interleaves
Interleave, duration : 40 ms (1.00 video frame)
Interleave, preload duration : 500 ms)

Качество видео: DVDRip
Формат видео: AVI







Скачать торрент: Storie Vere di Un'Italia Violenta (12,62 Kb)
Сиды:  198 
Пиры:  12 
Общий размер: 1,21 Gb
SHA Hash: ca89792684d16bc81c9a5029976e5c93d7758fd8

Список файлов (2)