Открытый порно трекер

Нигер смотрит под юбку Бранди,когда та надрачивает себе пизду,а её подруга дрочит и сосет негру хуй! Brandi Belle Presents-The Upskirt Perv

 Нигер смотрит под юбку Бранди,когда та надрачивает себе пизду,а её подруга дрочит и сосет негру хуй! Brandi Belle Presents-The Upskirt Perv
Format : Windows Media
File size : 294 MiB
Duration : 26mn 21s
Overall bit rate : 1 558 Kbps
Maximum Overall bit rate : 1 549 Kbps
Encoded date : UTC 2009-06-25 17:09:32.000
Writing application : Flip4Mac WMV Export Component for QuickTime (Mac) 2211
Video #2
ID : 2
Format : VC-1
Format profile : MP
Codec ID : WMV3
Codec ID/Info : Windows Media Video 9
Codec ID/Hint : WMV3
Description of the codec : Windows Media Video V9 - 720 x 406, 29.97 fps, 1500 kbps (CBR)
Duration : 26mn 19s
Bit rate : 1 501 Kbps
Width : 720 pixels
Height : 406 pixels
Display aspect ratio : 16:9
Frame rate : 29.970 fps
Resolution : 24 bits
Scan type : Progressive
Bits/(Pixel*Frame) : 0.171
Stream size : 283 MiB (96%)
Language : English (US)
Audio #1
ID : 1
Format : WMA2
Codec ID : 161
Codec ID/Info : Windows Media Audio 2
Description of the codec : Windows Media Audio V9 Standard - 48 kbps, 44 kHz, 16 bit, Stereo (CBR)
Duration : 26mn 21s
Bit rate mode : Constant
Bit rate : 48.0 Kbps
Channel(s) : 2 channels
Sampling rate : 44.1 KHz
Resolution : 16 bits
Stream size : 9.05 MiB (3%)
Language : English (US)
Качество: SATRip
Формат: WMV
Размер: 293.63 Мб




























Скачать торрент: Нигер смотрит под юбку Бранди,когда та надрачивает себе пизду,а её подруга дрочит и сосет негру хуй! Brandi Belle Presents-The Upskirt Perv (11,77 Kb)
Сиды:  31 
Пиры:  16 
Общий размер: 293,63 Mb
SHA Hash: 9b315451fa24219d05926d3fd367095533d3b1ed

Список файлов (1)