Открытый порно трекер

X-Art.

 X-Art.
Video
ID : 1
Format : AVC
Format/Info : Advanced Video Codec
Format profile : Main@L4.0
Format settings, CABAC : No
Format settings, ReFrames : 2 frames
Codec ID : avc1
Codec ID/Info : Advanced Video Coding
Duration : 5mn 12s
Bit rate mode : Variable
Bit rate : 8 177 Kbps
Width : 1 920 pixels
Height : 1 080 pixels
Display aspect ratio : 16:9
Frame rate mode : Constant
Frame rate : 29.970 fps
Resolution : 24 bits
Colorimetry : 4:2:0
Scan type : Progressive
Bits/(Pixel*Frame): 0.132
Stream size : 304 MiB (98%)
Language : English
Encoded date : UTC 2010-01-29 08:12:59
Tagged date : UTC 2010-01-29 08:21:11
colour_primaries : BT.709-5, BT.1361, IEC 61966-2-4, SMPTE RP177
transfer_characteristics : BT.709-5, BT.1361
matrix_coefficients : BT.709-5, BT.1361, IEC 61966-2-4 709, SMPTE RP177

Audio
ID : 2
Format : AAC
Format/Info : Advanced Audio Codec
Format version : Version 4
Format profile : LC
Format settings, SBR : No
Codec ID : 40
Duration : 5mn 12s
Bit rate mode : Constant
Bit rate : 129 Kbps
Nominal bit rate : 128 Kbps
Channel(s) : 2 channels
Channel positions : L R
Sampling rate : 48.0 KHz
Resolution : 16 bits
Stream size : 4.80 MiB (2%)
Language : English
Encoded date : UTC 2010-01-29 08:13:00
Tagged date : UTC 2010-01-29 08:21:11

























Скачать X-Art. сейчас

Скачивай на максимальной скорости новым торрент клиентом!


Скачать торрент: X-Art. (128,1 Kb)
Сиды:  90 
Пиры:  24 
Общий размер: 22,49 Gb
SHA Hash: 121ac0b46088e7c235a23d4379be65a1840e9b77

Список файлов (191)