Открытый порно трекер

Публично, на глазах у других - прилюно и насильно, ... с издиватильствами!! PD_12410_JamesDeen_LouCharmelle

 Публично, на глазах у других - прилюно и насильно, ... с издиватильствами!! PD_12410_JamesDeen_LouCharmelle
PD_12410_JamesDeen_LouCharmelle.wmv

великолепная игра, чувственные сцены, красивая обстановка -




ВСЁ ЭТО в прошлом

ТАПЕРИЧА СЕКАС!!!!! ГУБЫЙ И БЕСПАЩАДНВЫЙЁЁЁ

General
Complete name : E:OGpd12410-JamesDeen LouCharmellePD_12410_JamesDeen_LouCharmelle.wmv
Format : Windows Media
File size : 795 MiB
Duration : 1h 6mn
Overall bit rate mode : Variable
Overall bit rate : 1 676 Kbps
Maximum Overall bit rate : 7 158 Kbps
Encoded date : UTC 2011-04-15 21:56:38.770
Rating : xxx

Video
ID : 2
Format : VC-1
Format profile : MP@HL
Codec ID : WMV3
Codec ID/Info : Windows Media Video 9
Codec ID/Hint : WMV3
Description of the codec : Windows Media Video 9 - Professional
Duration : 1h 6mn
Bit rate mode : Variable
Bit rate : 1 500 Kbps
Width : 1 280 pixels
Height : 720 pixels
Display aspect ratio : 16:9
Frame rate : 29.970 fps
Resolution : 24 bits
Scan type : Progressive
Bits/(Pixel*Frame) : 0.054
Stream size : 711 MiB (89%)

Audio
ID : 1
Format : WMA
Format version : Version 2
Codec ID : 161
Codec ID/Info : Windows Media Audio
Description of the codec : Windows Media Audio 9.1 - 128 kbps, 44 kHz, stereo 2-pass CBR
Duration : 1h 6mn
Bit rate mode : Constant
Bit rate : 128 Kbps
Channel(s) : 2 channels
Sampling rate : 44.1 KHz
Resolution : 16 bits
Stream size : 60.7 MiB (8%)













Скачать торрент: Публично, на глазах у других - прилюно и насильно, ... с издиватильствами!! PD_12410_JamesDeen_LouCharmelle (154,13 Kb)
Сиды:  175 
Пиры:  6 
Общий размер: 849,82 Mb
SHA Hash: 9f73576137f4e02a8609d7b832c00694c26aeca1

Список файлов (277)