Открытый порно трекер

Digital Playground - Наполнить доверху

Digital Playground - Наполнить доверху


Информация о фильме
Название: Наполнить доверху / Fill 'Er Up
Год выхода: 2012
Жанр: Feature, Straight, Oral, Gonzo
Режиссер: Robby D
В ролях: Bibi Jones, Kendall Karson, Remy Lacroix, Riley Reid, Tommy Gunn, Manuel Ferrara, Marcus London, Bill Bailey

О фильме: BiBi gets her fill! Bubbly beauty BiBi Jones wants to get pregnant but her guy Tommy Gunn, is running on empty. Turning to her close friends for semen samples doesn't work out for the blonde babe either. First a furious sex session leads Remy LaCroix and Manuel Ferrara to spoil their sticky sample. Then caught in a heated moment of hardcore fucking, Riley Reid and Marcus London slip up as well. BiBi and Tommy are now left with only spouse swapping as an alternative. Friends Kendall Karson and Bill Bailey are more than happy to assist. What happens when hot couples swap partners? BiBi Jones finds out and takes it all inside in Fill'er Up!

Выпущено: США / Digital Playground
Продолжительность: 01:37:13
Язык: Английский

Файл
Качество: BDRip 1080p
Формат: MKV
Видео: 1920x1080 (16:9), 23.976 fps, MPEG4 Video (H264), 9212 Kbps, 0.185 bit/pixel
Аудио: 48 kHz, Dolby AC3, 6 ch, 448 Kbps

MediaInfo: Общее
Уникальный идентификатор : 184227304595171555906073960862314889672 (0x8A98E3644F5B37BF9BEE9A9EFD5781C8)
Полное имя : F:jiggly-fillerup-1080p.mkv
Формат : Matroska
Версия формата : Version 2
Размер файла : 6,56 Гбайт
Продолжительность : 1 ч. 37 м.
Общий поток : 9660 Кбит/сек
Дата кодирования : UTC 2012-10-27 05:43:55
Программа кодирования : mkvmerge v5.8.0 ('No Sleep / Pillow') built on Sep 2 2012 15:37:04
Библиотека кодирования : libebml v1.2.3 + libmatroska v1.3.0
Видео
Идентификатор : 1
Формат : AVC
Формат/Информация : Advanced Video Codec
Профиль формата : High@L4.1
Параметр CABAC формата : Да
Параметр ReFrames формата : 4 кадра
Режим смешивания : Header stripping
Идентификатор кодека : V_MPEG4/ISO/AVC
Продолжительность : 1 ч. 37 м.
Битрейт : 9212 Кбит/сек
Ширина : 1920 пикселей
Высота : 1080 пикселей
Соотношение сторон : 16:9
Частота кадров : 23,976 кадра/сек
Цветовое пространство : YUV
Субдискретизация насыщенности : 4:2:0
Битовая глубина : 8 бит
Тип развёртки : Прогрессивная
Бит/(Пиксели*Кадры) : 0.185
Размер потока : 6,12 Гбайт (93%)
Библиотека кодирования : x264 core 128 r2216 198a7ea
Настройки программы : cabac=1 / ref=4 / deblock=1:0:0 / analyse=0x3:0x133 / me=umh / subme=7 / psy=1 / psy_rd=1.00:0.00 / mixed_ref=1 / me_range=16 / chroma_me=1 / trellis=1 / 8x8dct=1 / cqm=0 / deadzone=21,11 / fast_pskip=0 / chroma_qp_offset=-2 / threads=12 / lookahead_threads=2 / sliced_threads=0 / nr=0 / decimate=1 / interlaced=0 / bluray_compat=0 / constrained_intra=0 / bframes=3 / b_pyramid=2 / b_adapt=1 / b_bias=0 / direct=1 / weightb=1 / open_gop=0 / weightp=2 / keyint=240 / keyint_min=23 / scenecut=40 / intra_refresh=0 / rc_lookahead=40 / rc=2pass / mbtree=1 / bitrate=9212 / ratetol=1.0 / qcomp=0.60 / qpmin=0 / qpmax=69 / qpstep=4 / cplxblur=20.0 / qblur=0.5 / ip_ratio=1.40 / aq=1:1.00
Язык : English
Default : Да
Forced : Нет
Аудио
Идентификатор : 2
Формат : AC-3
Формат/Информация : Audio Coding 3
Расширение режима : CM (complete main)
Параметр Endianness формата : Big
Режим смешивания : Header stripping
Идентификатор кодека : A_AC3
Продолжительность : 1 ч. 37 м.
Вид битрейта : Постоянный
Битрейт : 448 Кбит/сек
Каналы : 6 каналов
Расположение каналов : Front: L C R, Side: L R, LFE
Частота : 48,0 КГц
Битовая глубина : 16 бит
Метод сжатия : С потерями
Размер потока : 312 Мбайт (5%)
Default : Да
Forced : Нет
Скриншоты:

Альтернатива:




Скачать Digital Playground - Наполнить доверху сейчас

Скачивай на максимальной скорости новым торрент клиентом!


Скачать торрент: Digital Playground - Наполнить доверху (33,28 Kb)
Сиды:  173 
Пиры:  30 
Общий размер: 6,56 Gb
SHA Hash: 80c01678eaa29ed6fe4d41c51392f7f9078f8420

Список файлов (1)