Открытый порно трекер

Elegant Angel - Тори Блэк - Симпатичная Развратница

Elegant Angel - Тори Блэк - Симпатичная Развратница


Информация о фильме
Название: здесь и далее оставляйте пробел после двоеточия!
Год выхода: 2010
Жанр: Compilations, Gonzo, Blowjob, Anal, Double Penetration, Facial Interracial
Режиссер: Mason
В ролях: Tori Black, Kristina Rose, Marie Luv, Rebeca Linares, Ice Cold, James Deen, Manuel Ferrara, Mark Ashley, Mick Blue

О фильме: Elegant Angel proudly presents, "Tori Black Is Pretty Filthy". The sensationally beautiful Tori Black, performs in her 1st non-POV anal scene with former AVN male performer of the year, Manuel Ferrara, directed by the award winning Mason. This movie is a celebration of sexuality featuring a collection of diverse scenarios and locations. It is also a celebration of one of the most beautiful stars ever to grace the adult industry, and it features some of her most powerful performances yet.

Scene Breakdowns
Scene 1. Rebeca Linares, Tori Black, Mark Ashley
Scene 2. Tori Black, Manuel Ferrara
Scene 3. Marie Luv, Tori Black, Ice Cold
Scene 4. Kristina Rose, Tori Black, Manuel Ferrara
Scene 5. Tori Black, James Deen, Mick Blue

Выпущено: США
Продолжительность: 03:17:11 (фильм) + 00:39:45 (бонус)
Язык: Английский

Награды:
* 2010 AVN Award Winner for Best Gonzo Release.
* 2010 AVN Award Winner for Best Threeway Sex Scene.
* 2010 AVN Award Winner for Best Tease Performance.
* 2010 AVN Award Nominee for Best Anal Sex Scene.
* 2010 AVN Award Nominee for Best Director - Non-Feature.
* 2010 AVN Award Nominee for Best Videography.

Файл
Качество: DVD5
Формат: VOB
Видео: MPEG2, 24fps, 720ч480 (or 853ч480 / 16:9) 6000 Kb/s
Аудио: 48KHz, AC3 2ch, 192 Kb/s
Меню: Есть

MediaInfo: Общее
Полное имя : Tori Black Is Pretty Filthy (2009) DVD5VIDEO_TSVTS_01_1.VOB
Формат : MPEG-PS
Размер файла : 1024 Мбайт
Продолжительность : 54 м.
Режим общего битрейта : Переменный
Общий поток : 2629 Кбит/сек

Видео
Идентификатор : 224 (0xE0)
Формат : MPEG Video
Версия формата : Version 2
Профиль формата : Main@Main
Параметр BVOP формата : Да
Параметр матрицы формата : Выборочная
Параметр GOP формата : M=3, N=12
Продолжительность : 54 м.
Вид битрейта : Переменный
Битрейт : 2384 Кбит/сек
Максимальный битрейт : 6000 Кбит/сек
Ширина : 720 пикселей
Высота : 480 пикселей
Соотношение сторон : 16:9
Частота кадров : 23,976 кадра/сек
Стандарт вещания : NTSC
Цветовое пространство : YUV
Субдискретизация насыщенности : 4:2:0
Битовая глубина : 8 бит
Тип развёртки : Прогрессивная
Порядок развёртки : 2:3 Pulldown
Метод сжатия : С потерями
Бит/(Пиксели*Кадры) : 0.288
Размер потока : 929 Мбайт (91%)

Аудио
Идентификатор : 189 (0xBD)-128 (0x80)
Формат : AC-3
Формат/Информация : Audio Coding 3
Расширение режима : CM (complete main)
Режим смешивания : DVD-Video
Продолжительность : 54 м.
Вид битрейта : Постоянный
Битрейт : 192 Кбит/сек
Каналы : 2 канала
Расположение каналов : Front: L R
Частота : 48,0 КГц
Битовая глубина : 16 бит
Метод сжатия : С потерями
Размер потока : 74,8 Мбайт (7%)

Скриншоты:



Общее
Полное имя : Tori Black Is Pretty Filthy (2009) DVD5VIDEO_TSVTS_01_1.VOB
Формат : MPEG-PS
Размер файла : 1024 Мбайт
Продолжительность : 54 м.
Режим общего битрейта : Переменный
Общий поток : 2629 Кбит/сек

Видео
Идентификатор : 224 (0xE0)
Формат : MPEG Video
Версия формата : Version 2
Профиль формата : Main@Main
Параметр BVOP формата : Да
Параметр матрицы формата : Выборочная
Параметр GOP формата : M=3, N=12
Продолжительность : 54 м.
Вид битрейта : Переменный
Битрейт : 2384 Кбит/сек
Максимальный битрейт : 6000 Кбит/сек
Ширина : 720 пикселей
Высота : 480 пикселей
Соотношение сторон : 16:9
Частота кадров : 23,976 кадра/сек
Стандарт вещания : NTSC
Цветовое пространство : YUV
Субдискретизация насыщенности : 4:2:0
Битовая глубина : 8 бит
Тип развёртки : Прогрессивная
Порядок развёртки : 2:3 Pulldown
Метод сжатия : С потерями
Бит/(Пиксели*Кадры) : 0.288
Размер потока : 929 Мбайт (91%)

Аудио
Идентификатор : 189 (0xBD)-128 (0x80)
Формат : AC-3
Формат/Информация : Audio Coding 3
Расширение режима : CM (complete main)
Режим смешивания : DVD-Video
Продолжительность : 54 м.
Вид битрейта : Постоянный
Битрейт : 192 Кбит/сек
Каналы : 2 канала
Расположение каналов : Front: L R
Частота : 48,0 КГц
Битовая глубина : 16 бит
Метод сжатия : С потерями
Размер потока : 74,8 Мбайт (7%)



Скачать Elegant Angel - Тори Блэк - Симпатичная Развратница сейчас

Скачивай на максимальной скорости новым торрент клиентом!


Скачать торрент: Elegant Angel - Тори Блэк - Симпатичная Развратница (13,61 Kb)
Сиды:  131 
Пиры:  20 
Общий размер: 4,36 Gb
SHA Hash: 280b8de0e58d1532aa01bcbdac5e45f605124c0a

Список файлов (45)